#TITLE:Cat and Mouse;
#SUBTITLE:Chu Chu Rocket;
#ARTIST:Neko;
#TITLETRANSLIT:;
#SUBTITLETRANSLIT:;
#ARTISTTRANSLIT:;
#CREDIT:;
#BANNER:Cat and Mouse.jpg;
#BACKGROUND:Cat and Mouse-bg.jpg;
#LYRICSPATH:;
#CDTITLE:!macTitle.png;
#MUSIC:Cat And Mouse.mp3;
#OFFSET:-0.105;
#SAMPLESTART:31.948;
#SAMPLELENGTH:12.000;
#SELECTABLE:YES;
#BPMS:0.000=188.160,233.000=94.080,233.500=47.040,234.000=188.160,246.000=376.318,249.000=188.160,261.500=376.339,264.500=188.160;
#STOPS:246.000=0.120
,246.250=0.040
,246.500=0.040
,246.750=0.120
,247.000=0.040
,247.250=0.040
,247.500=0.040
,247.750=0.040
,248.000=0.040
,248.250=0.040
,248.500=0.040
,248.750=0.040
,261.500=0.120
,261.750=0.040
,262.000=0.040
,262.250=0.120
,262.500=0.040
,262.750=0.040
,263.000=0.040
,263.250=0.040
,263.500=0.040
,263.750=0.040
,264.000=0.040
,264.250=0.040
;
#BGCHANGES:;
// cache tags:
#FIRSTBEAT:0.000;
#LASTBEAT:304.000;
#SONGFILENAME:Songs/Music V.I.P ^_^/Cat and Mouse (MacGravel)/Cat and Mouse.sm;
#HASMUSIC:1;
#HASBANNER:1;
#MUSICLENGTH:98.144;
// end cache tags

//---------------dance-single - ----------------
#NOTES:
     dance-single:
     :
     Hard:
     10:
     1.000,1.000,1.000,0.489,0.459,603.000,133.000,48.000,0.000,0.000:

1000
0001
1000
0001
1000
0001
1000
0001
1000
0001
1000
0001
1000
0001
1000
0001
,
1001
0000
0000
0010
0101
0000
0000
0100
1010
0100
0001
1000
0010
0100
0001
1000
,
0100
0010
0101
0010
0100
0010
0101
0010
,
0001
0000
0100
0000
1001
0000
0100
0000
0001
0000
0100
0000
1001
0000
0100
0010
,
1000
0001
1010
0001
1000
0001
1010
0001
,
0100
0000
0010
0000
0101
0000
0010
0000
0100
0000
0010
1000
0101
0000
0010
0000
,
0101
0010
1001
0010
0001
0010
1001
0100
,
0010
0000
0100
0000
1010
0000
0100
0000
0010
0000
0100
0000
1010
0000
1000
0100
,
0010
1000
0011
1000
0010
1000
0011
1000
,
0110
0000
0001
1000
0001
0000
0110
0000
1000
0001
1000
0000
0110
1000
0010
1000
,
0010
0000
0100
0001
0100
0000
0001
0000
1000
0010
1000
0000
0001
0000
0100
0000
,
0010
0000
0100
0001
0010
0000
0100
0000
0010
0001
0010
0000
0100
0000
1000
0000
,
0001
0000
0010
0010
1000
0000
0001
0000
,
0001
0001
1010
0000
0110
0000
0101
0000
,
0001
0000
1000
0001
1000
0000
0010
0000
1000
0001
0100
0000
0010
0000
0100
0000
,
0001
0000
0010
0100
0010
0000
0001
0000
1000
0100
1000
0000
0010
0000
1000
0000
,
0001
0000
1000
1000
0100
0000
0010
0000
,
0001
0001
0110
0000
1100
0000
1001
0000
,
0101
0000
0010
0001
0010
0000
0100
0000
0010
0100
0010
0000
0100
0000
1000
0000
,
0010
0000
1000
0010
1000
0000
0100
0000
0010
0100
0010
0000
0001
0000
0010
0000
,
0001
0000
0100
0100
0010
0000
1000
0000
,
0100
0100
0011
0000
0101
0000
0110
0000
,
0110
0000
1000
0010
1000
0000
0100
0000
0010
0001
0100
0000
0010
0000
0100
0000
,
0001
0000
0010
0100
0010
0000
0001
0000
1000
0100
1000
0000
0010
0000
1000
0000
,
0010
0000
1000
1000
0100
0000
0010
0000
,
0100
0100
0011
0000
0101
0000
1001
0000
,
1010
0000
1001
0000
0100
0010
1001
0100
,
0000
0100
0101
0010
0000
1000
1010
0100
,
0010
0000
0110
0010
0000
0010
0110
0010
,
0001
0000
0101
0010
0000
1000
0101
1000
,
0110
0000
0110
0000
0001
1000
1001
0010
,
0000
0010
0110
0001
0000
0100
0101
0010
,
1000
0000
1010
1000
0000
1000
1010
1000
,
0010
0000
0000
0000
1100
0000
0001
0000
0000
0000
1000
0001
1100
0000
0010
0000
,
0011
0000
0110
0000
1100
0110
0011
0110
,
0000
1010
1010
0101
0000
0011
0011
1100
,
0110
0000
1010
1010
0000
1010
1010
1010
,
0101
0000
0011
0110
0000
1010
0101
1010
,
0110
0000
0011
0000
0110
1100
1010
0110
,
0000
0101
0101
0110
0000
1010
1010
1001
,
0110
0000
1100
1100
0000
1100
1100
1100
,
0011
0000
0001
1000
0101
0000
0110
0000
1000
0001
1100
0000
0110
0000
0011
0000
,
1001
0100
0010
0001
0000
0001
1000
0100
,
1000
0010
0100
0010
0000
0010
1000
0100
,
0010
0100
1000
0010
0000
0010
1000
0010
,
0100
0000
0010
0000
1000
0000
0001
0000
0002
0000
0013
0100
1000
0001
0010
0100
,
1000
0000
0010
0100
0001
0000
0100
0000
0000
0000
0010
0000
1000
0000
0100
0000
,
0010
0000
0010
0001
0010
0000
0001
0000
0000
0000
0100
0000
0010
0000
0100
0000
,
0001
0000
1000
0010
1000
0000
0100
0000
0000
0000
1000
0000
0010
0000
0100
0000
,
0001
0000
1000
0001
0100
0010
1000
0000
0100
0000
0010
0000
0001
0010
0100
1000
,
0020
0030
1000
0100
0020
0030
0002
0003
0020
0030
0200
0300
1000
0000
0020
0030
,
0010
0000
0200
0301
0200
0300
0001
0000
0020
0030
0100
0000
0010
0000
0100
0000
,
2000
3000
0010
0100
0002
0003
2000
3000
0200
0300
0020
0030
0001
0000
0200
0300
,
0001
0000
0020
0130
2000
3010
0200
0300
0002
0003
0010
0000
0100
1000
0010
0100
,
0002
0003
0200
0310
2000
3000
0020
0030
0200
0300
0002
0003
1000
0000
0020
0030
,
2000
3000
0002
0103
0002
0003
0020
0030
0200
0300
1000
0000
0010
0000
0100
0000
,
0002
0003
2000
3100
0020
0030
0002
0003
0200
0300
0020
0030
1000
0000
0200
0300
,
0020
0030
0002
1003
0020
1030
0200
0300
0020
0030
0001
1000
0100
0010
0001
0100
,
2020
0000
0000
0000
0000
0000
0000
3000
1030
0000
0000
0100
1010
0000
0100
0010
,
1000
0100
0010
0001
0100
0010
1000
0000
0010
0000
0000
0000
1010
0000
0000
0000
,
0100
0001
0110
0010
0000
1000
1001
0100
,
0000
0000
0100
0000
1100
0000
0010
0000
0001
1000
0001
1000
0001
0100
0010
1000
,
0100
0010
0001
1000
0010
0000
1000
0000
0000
0000
0101
0000
1000
0000
0000
0000
,
0100
1010
0001
0110
0000
0101
0000
0010
,
1000
0110
1000
0000
1000
1010
0100
0000
,
0100
0000
1001
0000
0010
0000
0100
1000
0010
1000
0001
0100
0010
1000
0100
1000
,
0010
0100
0001
0000
1000
0000
0000
0000
0110
0000
1000
0000
0000
0000
1000
0000
,
0101
0000
0010
0000
0001
0000
0010
0001
0010
0000
0100
0000
0010
0100
1000
0000
,
0010
0000
1000
0000
0001
0000
0100
0010
0100
0000
0001
0000
1000
0100
1000
0000
,
0010
1000
0100
0000
1100
0110
0011
0000
,
0100
0000
1010
0101
0110
0000
0001
0000
,
1000
0000
0000
0000
0110
0000
1000
0010
1000
0000
0100
0000
0010
0001
0010
0000
,
0100
0000
0010
0000
0001
0000
0100
0010
0100
0000
0001
0000
1000
0100
1000
0000
,
0010
1000
0100
0000
1001
0110
0101
0000
,
0100
0000
1001
0110
1001
0000
1100
0000
,
0110
0022
0000
0000
,
0033
0000
0000
0000
;
